7월 얼리버드 10% off
파고다토익

선생님조회

HOME > 선생님안내 > 선생님조회 > 선생님소개

명품강의로 여러분을 성공으로 이끌어줄 파고다의 전문 강사진을 소개 합니다.

이메일 블로그 카페 페이스북
ID : leokujini
강사아이콘 배수진
추천


강사안내
과목 HSK, 중국어 팀명 배.수.진.HSK합격보장반 대표
학원 강남
별점점수 평점 평점이란?
10점 10
(후기 559개)
  • 강의력평점이란? 10
  • 수업준비평점이란? 10
  • 학습케어평점이란? 10
수강신청 수강후기

★중국어멘토!!마음의 배수진을 쳐라! ★HSK강의 전문 10년 경력 강사 배수진! ▶명쾌한 해설, 유쾌한 수업 진행으로 HSK에 대한 자신감을 키울 수 있는 강의 ▶오답 유형을 체계적으로 분석, 정리 ▶철저한 출석관리 및 학습 코디가 겸해진 '최적프로젝트' ★HSK 보장을 원하신다면 합격보장반을 선택하실 시간입니다!!앞으로 저만 믿고 따라 오세요.그럼 강의실에서 뵙겠습니다!^^

  1. 선생님소개
  2. 무료특강/설명회
학력/약력
  • 중국인민대학교 중어중문학 학사
  • 현) 파고다 강남 HSK4급-6급 배수진 점수보장반 전담강사
  • 전) 북경고려입시학원 교학실장/HSK대표강사
  • 이얼싼중국어학원 HSK대표강사
  • 중국어특기자전형 한국어면접수석강사
  • 한솔교육그룹 강남차이나로 HSK대표강사
  • 중국어특기자전형 한국어면접 대표강사
  • 차이나로 유학아카데미 팀장
  • 취업면접 대표강사
  • 리더스 아카데미(LSA) 비지니스중국어수업
  • 이미지컨설턴트협회 강사
  • 한국재능기부협회 운영위원
  • 저서) 파고다 HSK 4급, 6급 종합서
  • 끝짱HSK 4급, 5급
  • 배수진선생님 앱) PLAY스토어/App 스토어 “중국어멘토 배수진”검색
  • 경력)
  • 2009~현재 고려대, 경희대, 한국외대, 이화여대, 중앙대, 한양대, 동국대, 건국대 등 다수대학 합격생 배출
  • 덕일전자공업고등학교 취업면접 강의
  • 유한공업고등학교 취업면접 강의국제대학교 취업면접 강의
  • 서울강서초등학교 인성교육 강의
과목별 강의특징
  • [점수보장반]배수진 HSK 5급 점수보장반


  • [점수보장반]배수진 HSK 6급 점수보장반



  • HSK 5급 입문 1개월 완성반



















    General Complete name : D:\배수진샘플강의cut.mp4 Format : MPEG-4 Format profile : Base Media / Version 2 Codec ID : mp42 (mp42/mp41) File size : 479 MiB Duration : 12mn 35s Overall bit rate mode : Variable Overall bit rate : 5 316 Kbps Encoded date : UTC 2015-11-25 06:47:28 Tagged date : UTC 2015-11-25 06:47:35 쯙IM : 00;11;30;11 쯙SC : 30000 쯙SZ : 1001 Video ID : 1 Format : AVC Format/Info : Advanced Video Codec Format profile : High@L3.1 Format settings, CABAC : Yes Format settings, ReFrames : 3 frames Codec ID : avc1 Codec ID/Info : Advanced Video Coding Duration : 12mn 35s Source duration : 12mn 35s Bit rate : 4 994 Kbps Width : 1 280 pixels Height : 720 pixels Display aspect ratio : 16:9 Frame rate mode : Variable Frame rate : 29.970 (30000/1001) fps Minimum frame rate : 29.970 fps Maximum frame rate : 30.000 fps Standard : NTSC Color space : YUV Chroma subsampling : 4:2:0 Bit depth : 8 bits Scan type : Progressive Bits/(Pixel*Frame) : 0.181 Stream size : 450 MiB (94%) Source stream size : 450 MiB (94%) Language : English Encoded date : UTC 2015-11-25 06:47:28 Tagged date : UTC 2015-11-25 06:47:28 Color range : Limited Color primaries : BT.709 Transfer characteristics : BT.709 Matrix coefficients : BT.709 mdhd_Duration : 755355 Audio ID : 2 Format : AAC Format/Info : Advanced Audio Codec Format profile : LC Codec ID : 40 Duration : 12mn 35s Source duration : 12mn 35s Bit rate mode : Variable Bit rate : 317 Kbps Maximum bit rate : 446 Kbps Channel(s) : 2 channels Channel positions : Front: L R Sampling rate : 48.0 KHz Frame rate : 46.875 fps (1024 spf) Compression mode : Lossy Stream size : 28.6 MiB (6%) Source stream size : 28.6 MiB (6%) Language : English Encoded date : UTC 2015-11-25 06:47:28 Tagged date : UTC 2015-11-25 06:47:28 mdhd_Duration : 755392

07월 시간표
07월 시간표 목록
수강시간 학원 과목 선생님 금액 비고
[주5일]
수업일 10:00 ~ 11:50
강남 [점수보장반]배수진 HSK 4급 점수보장반 김영표
배수진
340,000 수강신청
[주5일]
수업일 10:00 ~ 11:50
강남 [점수보장반]배수진 HSK 5급 점수보장반 김영표
배수진
340,000 수강신청
[주4일반]
수업일 14:00 ~ 15:50
강남 [점수보장반]배수진 HSK 5급 점수보장반 김영표
배수진
272,000 수강신청
[주5일]
수업일 08:00 ~ 09:50
강남 [점수보장반]배수진 HSK 6급 점수보장반 정샹루이
배수진
360,000 수강신청
[주5일]
수업일 16:00 ~ 17:50
강남 [점수보장반]배수진 HSK 6급 점수보장반 정샹루이
배수진
360,000 수강신청
[화목반]
수업일 19:00 ~ 20:30
강남 HSK 5급 입문반 김영표
배수진
120,000 수강신청
[월수반]
수업일 19:00 ~ 20:30
강남 HSK 5급 입문반 김영표
배수진
120,000 수강신청
[화목반]
수업일 12:00 ~ 13:50
강남 배수진 HSK 4급 2개월완성반 김유진
배수진
125,000 수강신청
[주4일반]
수업일 19:00 ~ 20:30
강남 HSK 5급 입문 1개월 완성반 김영표
배수진
245,000 수강신청
[주5일(2개월)]
수업일 10:00 ~ 11:50
강남 [방학집중 점수보장반]신HSK 4-5급 단기완성(40일완성) 김영표
배수진
646,000 수강신청
[특별반10]
수업일 14:00 ~ 15:50
강남 [방학집중 점수보장반]신HSK 5-6급 단기완성(40일완성) 김영표
배수진
600,000 수강신청
[화목반]
수업일 12:00 ~ 13:50
강남 HSK 4급 김유진
배수진
125,000 수강신청
[주5일]
수업일 10:00 ~ 11:50
강남 [인강무료제공]배수진 HSK 5급 점수보장반 김영표
배수진
340,000 수강신청
[주5일]
수업일 16:00 ~ 17:50
강남 [인강무료제공]배수진 HSK 6급 점수보장반 정샹루이
배수진
340,000 수강신청
[화목반]
수업일 19:00 ~ 20:30
강남 배수진 HSK 5급 2개월완성반 김영표
배수진
120,000 수강신청
[월수반]
수업일 19:00 ~ 20:30
강남 배수진 HSK 5급 2개월완성반 김영표
배수진
120,000 수강신청
[주4일반]
수업일 19:00 ~ 20:30
강남 배수진 HSK 5급 1개월완성반 김영표
배수진
245,000 수강신청
[금요반]
수업일 12:00 ~ 13:40
강남 중국어 면접대비 특별반 정샹루이
배수진
70,000 수강신청
[금요반]
수업일 12:00 ~ 13:40
강남 배수진 중국어 면접대비반 정샹루이
배수진
70,000 수강신청

강의 시간표 다운로드